Welcome to » » The Hobbit An Unexpected Journey 2012 720p BluRay QEBSx AAC20 MP4-FASM
The Hobbit An Unexpected Journey 2012 720p BluRay QEBSx AAC20 MP4-FASM  
The Hobbit An Unexpected Journey 2012 720p BluRay QEBSx AAC20 MP4-FASM
Your rating:
I like this movie I dislike this movie
+1-1
Votes: 1
IMDB Official Website
8.1


  • Description
  • Trailer
  • Download
  • Screenshots
  • Live Stream
  • Bilbo Baggins, a hobbit enjoying his quiet life, is swept into an epic quest by Gandalf the Grey and thirteen dwarves who seek to reclaim their mountain home from Smaug, the dragon.

    _$$$$$$$__$$$$$$___$$$$$$__$$$___$$$_____________________________________________
    _$$$_____$$$__$$$_$$$_____$$$$$_$$$$$____________________________________________
    _$$$$$___$$$$$$$$__$$$$$__$$$__$__$$$____________________________________________
    _$$$_____$$$__$$$_____$$$_$$$_____$$$____________________________________________
    _$$$_____$$$__$$$_$$$$$$__$$$_____$$$____________________________________________
    ____p_r_o_u_d_l_y__p_r_e_s_e_n_t_s_______________________________________________
    ______________________________________$$$$$$___$$$$$$_$$$$$$___$$$$$$____________
    _____________________________________$$$__$$$__$$$____$$$__$$_$$$________________
    _____________________________________$$$__$$$__$$$$$__$$$$$$___$$$$$__$$$_$$$____
    _____________________________________$$$__$$$__$$$____$$$__$$_____$$$___$$$______
    ______________________________________$$$$$$$$_$$$$$$_$$$$$$__$$$$$$__$$$_$$$____
    _____________________________________You`ll_find_it_where_QUALITY_meets_LOW_space
    _________________________________________________________________________________

    Release with the new improved QEBSx_2 engine.

    SUBTITLES:
    ENGLISH, POLISH others from other BluRay releases on subscene.com

    General
    Complete name : The_Hobbit_An_Unexpected_Journey_2012_720p_BluRay_QEBSx_AAC20_MP4-FASM.mp4
    Format : MPEG-4
    Format profile : Base Media
    Codec ID : isom
    File size : 3.40 GiB
    Duration : 2h 49mn
    Overall bit rate mode : Variable
    Overall bit rate : 2 868 Kbps
    Encoded date : UTC 2013-08-09 16:42:24
    Tagged date : UTC 2013-08-09 16:42:24

    Video
    ID : 1
    Format : AVC
    Format/Info : Advanced Video Codec
    Format profile : High@L3.1
    Format settings, CABAC : Yes
    Format settings, ReFrames : 5 frames
    Codec ID : avc1
    Codec ID/Info : Advanced Video Coding
    Duration : 2h 49mn
    Bit rate : 2 721 Kbps
    Maximum bit rate : 6 214 Kbps
    Width : 1 280 pixels
    Height : 528 pixels
    Display aspect ratio : 2.40:1
    Frame rate mode : Constant
    Frame rate : 23.976 fps
    Color space : YUV
    Chroma subsampling : 4:2:0
    Bit depth : 8 bits
    Scan type : Progressive
    Bits/(Pixel*Frame) : 0.168
    Stream size : 3.22 GiB (95%)
    Writing library : FASM Quality Enhancer Bitrate Squeezer X.2 (c)2013 Fachman
    Encoded date : UTC 2013-08-09 16:42:24
    Tagged date : UTC 2013-08-09 16:44:08
    Color primaries : BT.709
    Transfer characteristics : BT.709
    Matrix coefficients : BT.709

    Audio
    ID : 2
    Format : AAC
    Format/Info : Advanced Audio Codec
    Format profile : LC
    Codec ID : 40
    Duration : 2h 49mn
    Bit rate mode : Variable
    Bit rate : 144 Kbps
    Maximum bit rate : 202 Kbps
    Channel(s) : 2 channels
    Channel positions : Front: L R
    Sampling rate : 48.0 KHz
    Compression mode : Lossy
    Stream size : 174 MiB (5%)
    Language : English
    Encoded date : UTC 2013-08-09 16:44:04
    Tagged date : UTC 2013-08-09 16:44:08

    Menu
    00:00:00.000 : Chapter01
    00:08:51.531 : Chapter02
    00:12:58.903 : Chapter03
    00:16:34.619 : Chapter04
    00:20:50.666 : Chapter05
    00:25:09.007 : Chapter06
    00:33:14.409 : Chapter07
    00:38:26.804 : Chapter08
    00:43:40.368 : Chapter09
    00:50:12.301 : Chapter10
    00:55:16.939 : Chapter11
    00:57:04.838 : Chapter12
    01:07:51.943 : Chapter13
    01:12:11.369 : Chapter14
    01:16:03.559 : Chapter15
    01:22:06.463 : Chapter16
    01:28:49.991 : Chapter17
    01:32:03.518 : Chapter18
    01:33:42.534 : Chapter19
    01:40:29.607 : Chapter20
    01:43:06.847 : Chapter21
    01:49:12.963 : Chapter22
    01:54:04.588 : Chapter23
    01:56:58.094 : Chapter24
    02:10:27.945 : Chapter25
    02:12:26.021 : Chapter26
    02:13:37.718 : Chapter27
    02:17:59.438 : Chapter28
    02:20:09.359 : Chapter29
    02:22:59.112 : Chapter30
    02:33:58.563 : Chapter31
    02:39:27.558 : Chapter32



    SCREENSHOTS:






Movies Similar to: The Hobbit An Unexpected Journey 2012 720p BluRay QEBSx AAC20 MP4-FASM
Dear visitor, you went to the site as unregistered user. We encourage you to register or enter the site under your name.

Information
Would you like to leave your comment? Please Login to your account to leave comments. Don't have an account? You can create a free account now.